18+ Death House 2018 HDRip XviD AC3 LLG Torrent Free Download

Seeders : 317   &   Leechers : 368      06-11-2018 (1 week)
18+ Death House 2018 HDRip XviD AC3 LLG Torrent Download
Added: ago by LifeLongg ***** in Movies   1,008.9 MB   Hits : 19
Info Hash: 652B567F09160252C12285D8A130EB0F2AF5786B Download
18+ Death House 2018 HDRip XviD AC3 LLG Torrent Download

Anonymous and Direct Download movies , software , shows...

Fast Safe Anonymous
movies, software, shows...

Torrent Description





******************************Thumbnail:**********************



******************************Screenshots:********************

Screenshot 1

Screenshot 2

Screenshot 3

Screenshot 4

Screenshot 5

Screenshot 6

Screenshot 7

Screenshot 8

Screensho 9

*****************************Poster:***********************




************************************************************

18+.Death.House.2018.HDRip.XviD.AC3.LLG.mp4
Format : MPEG-4
Format profile : Base Media
Codec ID : isom (isom/iso2/avc1/mp41)
File size : 999 MiB
Duration : 1 h 27 min
Overall bit rate mode : Variable
Overall bit rate : 1 591 kb/s


Video
ID : 1
Format : AVC
Format/Info : Advanced Video Codec
Format profile : [email protected]
Format settings : CABAC / 1 Ref Frames
Format settings, CABAC : Yes
Format settings, RefFrames : 1 frame
Codec ID : avc1
Codec ID/Info : Advanced Video Coding
Duration : 1 h 27 min
Bit rate mode : Variable
Bit rate : 1 203 kb/s
Maximum bit rate : 3 600 kb/s
Width : 720 pixels
Height : 400 pixels
Display aspect ratio : 16:9
Frame rate mode : Constant
Frame rate : 23.976 (23976/1000) FPS
Color space : YUV
Chroma subsampling : 4:2:0
Bit depth : 8 bits
Scan type : Progressive
Bits/(Pixel*Frame) : 0.174
Stream size : 755 MiB (76%)


Audio
ID : 2
Format : AC-3
Format/Info : Audio Coding 3
Commercial name : Dolby Digital
Codec ID : ac-3
Duration : 1 h 27 min
Bit rate mode : Constant
Bit rate : 384 kb/s
Channel(s) : 6 channels
Channel layout : L R C LFE Ls Rs
Sampling rate : 48.0 kHz
Frame rate : 31.250 FPS (1536 SPF)
Bit depth : 16 bits
Compression mode : Lossy
Stream size : 241 MiB (24%)
Title : Surround
Language : English
Service kind : Complete Main
Default : Yes
Alternate group : 1


**************************************************************




Sharing Widget


No Comments For This Torrent . Be The First to Comment

You must Login to Comment . Click Here to Login

Menu 1

Some content in menu 1.

18+ Death House 2018 HDRip XviD AC3 LLG (Size: 1,008.9 MB)
  18+ Death House 2018 HDRip XviD AC3 LLG 1,008.9 MB
tracker name
udp://tracker.leechers-paradise.org:6969/announce
udp://zer0day.ch:1337/announce
udp://open.demonii.com:1337/announce
udp://tracker.coppersurfer.tk:6969/announce
udp://exodus.desync.com:6969/announce
µTorrent compatible trackers list

Relative Torrents

Torrent Name Size Age SEED LEECH
Coronation Street 2018 11 19 Part 1 WEB 264-KOMPOST [eztv]
Posted by    EZTVag   in   TV
244.5 MB 8 minutes 901 718
Coronation Street 2018 11 19 Part 2 WEB 264-KOMPOST [eztv]
Posted by    EZTVag   in   TV
241.4 MB 8 minutes 286 572
EastEnders 2018 11 19 720p WEB h264-KOMPST [eztv]
Posted by    EZTVag   in   TV
1.1 GB 8 minutes 687 461
The Trough (2018) BluRay 720p 850MB Ganol
Posted by    bone111   in   Movies
849.0 MB 18 minutes 126 720
Columbus 2018 BRRip XviD AC3-EVO[EtMovie]
Posted by    EtHD   in   Movies
1.3 GB 21 minutes 476 153