18+ Traffik 2018 720p BluRay x264 LLG Torrent Free Download

Seeders : 282   &   Leechers : 361      08-11-2018 (1 week)
18+ Traffik 2018 720p BluRay x264 LLG Torrent Download
Added: ago by LifeLongg ***** in Movies   1.2 GB   Hits : 30
Info Hash: 538E2DEAF24495DB76F9BD0B1997ACA0FFA85741 Download
18+ Traffik 2018 720p BluRay x264 LLG Torrent Download

Anonymous and Direct Download movies , software , shows...

Fast Safe Anonymous
movies, software, shows...

Torrent Description





******************************Thumbnail:**********************



******************************Screenshots:********************

Screenshot 1

Screenshot 2

Screenshot 3

Screenshot 4

Screenshot 5

Screenshot 6

Screenshot 7

Screenshot 8

Screenshot 9

******************************Poster:**********************



************************************************************

18+.Traffik.2018.720p.BluRay.x264.LLG.mp4
Format : MPEG-4
Format profile : Base Media
Codec ID : isom (isom/iso2/avc1/mp41)
File size : 1.19 GiB
Duration : 1 h 36 min
Overall bit rate : 1 757 kb/s
Writing application : Lavf57.56.101

Video
ID : 1
Format : AVC
Format/Info : Advanced Video Codec
Format profile : [email protected]
Format settings : CABAC / 4 Ref Frames
Format settings, CABAC : Yes
Format settings, RefFrames : 4 frames
Codec ID : avc1
Codec ID/Info : Advanced Video Coding
Duration : 1 h 36 min
Bit rate : 1 500 kb/s
Width : 1 280 pixels
Height : 536 pixels
Display aspect ratio : 2.40:1
Frame rate mode : Constant
Frame rate : 23.976 (23976/1000) FPS
Color space : YUV
Chroma subsampling : 4:2:0
Bit depth : 8 bits
Scan type : Progressive
Bits/(Pixel*Frame) : 0.091
Stream size : 1.01 GiB (85%)


Audio
ID : 2
Format : AC-3
Format/Info : Audio Coding 3
Commercial name : Dolby Digital
Codec ID : ac-3
Duration : 1 h 36 min
Bit rate mode : Constant
Bit rate : 256 kb/s
Channel(s) : 6 channels
Channel layout : L R C LFE Ls Rs
Sampling rate : 48.0 kHz
Frame rate : 31.250 FPS (1536 SPF)
Bit depth : 16 bits
Compression mode : Lossy
Stream size : 177 MiB (15%)
Language : English
Service kind : Complete Main
Default : Yes
Alternate group : 1



********************************************************




Sharing Widget


No Comments For This Torrent . Be The First to Comment

You must Login to Comment . Click Here to Login

Menu 1

Some content in menu 1.

18+ Traffik 2018 720p BluRay x264 LLG (Size: 1.2 GB)
  18+ Traffik 2018 720p BluRay x264 LLG 1.2 GB
tracker name
udp://tracker.leechers-paradise.org:6969/announce
udp://zer0day.ch:1337/announce
udp://open.demonii.com:1337/announce
udp://tracker.coppersurfer.tk:6969/announce
udp://exodus.desync.com:6969/announce
µTorrent compatible trackers list

Relative Torrents

Torrent Name Size Age SEED LEECH
The Happytime Murders 2018 720p BluRay HVC x265-RMTeam
Posted by    bone111   in   Movies
552.9 MB 57 seconds 66 971
Coronation Street 19th Nov 2018 part 2 180p (Deep61) [WWRG]
Posted by    Deep61   in   TV
493.2 MB 1 minute 149 672
Salvage Dawgs S08E01 Former United Methoist Church 720p WEB x264-KOMPOST [eztv]
Posted by    EZTVag   in   TV
458.0 MB 1 minute 236 752
Salvage Dawgs S08E01 Former United Methoist Church WEB x264-KOMPOST [eztv]
Posted by    EZTVag   in   TV
258.8 MB 1 minute 488 761
Salvage Dawgs S08E01 Former United Methoist Church 1080p WEB x264-KOMPOST
Posted by    Trige   in   TV
726.2 MB 1 minute 160 453