5 Weddings 2018 Hindi 720p Pre-DVDRip X2 Torrent Free Download

Seeders : 768   &   Leechers : 482      06-11-2018 (1 week)
5 Weddings 2018 Hindi 720p Pre-DVDRip X2 Torrent Download
Added: ago by LifeLongg ***** in Movies   645.1 MB   Hits : 23
Info Hash: AFC5012F572EE0B932BACB5945BB61C62E720C70 Download
5 Weddings 2018 Hindi 720p Pre-DVDRip X2 Torrent Download

Anonymous and Direct Download movies , software , shows...

Fast Safe Anonymous
movies, software, shows...

Torrent Description





******************************Thumbnail:**********************



******************************Screenshots:********************

Screenshot 1

Screenshot 2

Screenshot 3

Screenshot 4

Screenshot 5

Screenshot 6

Screenshot 7

Screenshot 8

Screensho 9

*****************************Poster:***********************




************************************************************

5 Weddings.2018.Hindi.720p.Pre-DVDRip.X264.AAC.LLG.mp4
Format : MPEG-4
Format profile : Base Media
Codec ID : isom (isom/iso2/avc1/mp41)
File size : 637 MiB
Duration : 1 h 28 min
Overall bit rate mode : Variable
Overall bit rate : 1 009 kb/s


Video
ID : 1
Format : AVC
Format/Info : Advanced Video Codec
Format profile : [email protected]
Format settings : CABAC / 1 Ref Frames
Format settings, CABAC : Yes
Format settings, RefFrames : 1 frame
Codec ID : avc1
Codec ID/Info : Advanced Video Coding
Duration : 1 h 28 min
Bit rate mode : Variable
Bit rate : 876 kb/s
Maximum bit rate : 2 700 kb/s
Width : 1 280 pixels
Height : 544 pixels
Display aspect ratio : 2.35:1
Frame rate mode : Constant
Frame rate : 23.976 (23976/1000) FPS
Color space : YUV
Chroma subsampling : 4:2:0
Bit depth : 8 bits
Scan type : Progressive
Bits/(Pixel*Frame) : 0.052
Stream size : 552 MiB (87%)

Audio
ID : 2
Format : AAC LC
Format/Info : Advanced Audio Codec Low Complexity
Codec ID : mp4a-40-2
Duration : 1 h 28 min
Bit rate mode : Constant
Bit rate : 128 kb/s
Channel(s) : 2 channels
Channel layout : L R
Sampling rate : 44.1 kHz
Frame rate : 43.066 FPS (1024 SPF)
Compression mode : Lossy
Stream size : 81.1 MiB (13%)
Language : Hindi
Default : Yes
Alternate group : 1



**************************************************************




Sharing Widget


No Comments For This Torrent . Be The First to Comment

You must Login to Comment . Click Here to Login

Menu 1

Some content in menu 1.

5 Weddings 2018 Hindi 720p Pre-DVDRip X264 AAC LLG (Size: 645.1 MB)
  5 Weddings 2018 Hindi 720p Pre-DVDRip X264 AAC LLG 645.1 MB
tracker name
udp://tracker.leechers-paradise.org:6969/announce
udp://zer0day.ch:1337/announce
udp://open.demonii.com:1337/announce
udp://tracker.coppersurfer.tk:6969/announce
udp://exodus.desync.com:6969/announce
µTorrent compatible trackers list

Relative Torrents

Torrent Name Size Age SEED LEECH
Columbus 2017 1080p BluRay X264-AMIABLE[tHD]
Posted by    EtHD   in   Movies
7.7 GB 6 minutes 683 778
Nine Months (1995) [BluRay] [1080p] [YTS [YIFY]
Posted by    YTSAGx   in   Movies
1.6 GB 6 minutes 790 725
Coronation Street 2018 11 19 Part 1 WEB 264-KOMPOST [eztv]
Posted by    EZTVag   in   TV
244.5 MB 8 minutes 901 718
Bargain Hunt S51E18 720p WEB h264-KOMPOS [eztv]
Posted by    EZTVag   in   TV
1.6 GB 8 minutes 840 966
Doctor Who S11E07 Kerblam (1280x720p HD,50fps, soft Eng subs)
Posted by    ElsonRoa   in   TV
1.8 GB 8 minutes 417 883