Die In One Day 2018 HDRip XviD AC3 LLG Torrent Free Download

Seeders : 565   &   Leechers : 926      06-11-2018 (1 week)
Die In One Day 2018 HDRip XviD AC3 LLG Torrent Download
Added: ago by LifeLongg ***** in Movies   773.4 MB   Hits : 31
Info Hash: 3B1C060A4DDF590E59C0F7C3C26A783F80CC9C5C Download
Die In One Day 2018 HDRip XviD AC3 LLG Torrent Download

Anonymous and Direct Download movies , software , shows...

Fast Safe Anonymous
movies, software, shows...
Die in One Day
Horror /Thriller  .   79 min   5.9/10
Director : Eros D'Antona  
Writer: Eros D'Antona  
Tags: Die  In  One  Day  2018  HDRip  

Released:
N/A
After a failed marriage, Richard is in search of his daughter Mindy. He meets Sasha, an aspiring actress who promises to help him. But the hope to get some quick cash by performing in a 24 hours play soon turns out to be a bloody game.

Torrent Description





******************************Thumbnail:**********************



******************************Screenshots:********************

Screenshot 1

Screenshot 2

Screenshot 3

Screenshot 4

Screenshot 5

Screenshot 6

Screenshot 7

Screenshot 8

Screensho 9

*****************************Poster:***********************




************************************************************

Die.In.One.Day.2018.HDRip.XviD.AC3.LLG.mp4
Format : MPEG-4
Format profile : Base Media
Codec ID : isom (isom/iso2/avc1/mp41)
File size : 763 MiB
Duration : 1 h 18 min
Overall bit rate mode : Variable
Overall bit rate : 1 367 kb/s


Video
ID : 1
Format : AVC
Format/Info : Advanced Video Codec
Format profile : [email protected]
Format settings : CABAC / 1 Ref Frames
Format settings, CABAC : Yes
Format settings, RefFrames : 1 frame
Codec ID : avc1
Codec ID/Info : Advanced Video Coding
Duration : 1 h 18 min
Bit rate mode : Variable
Bit rate : 1 171 kb/s
Maximum bit rate : 4 500 kb/s
Width : 720 pixels
Height : 304 pixels
Display aspect ratio : 2.35:1
Frame rate mode : Constant
Frame rate : 24.000 FPS
Color space : YUV
Chroma subsampling : 4:2:0
Bit depth : 8 bits
Scan type : Progressive
Bits/(Pixel*Frame) : 0.223
Stream size : 654 MiB (86%)


Audio
ID : 2
Format : AC-3
Format/Info : Audio Coding 3
Commercial name : Dolby Digital
Codec ID : ac-3
Duration : 1 h 18 min
Bit rate mode : Constant
Bit rate : 192 kb/s
Channel(s) : 2 channels
Channel layout : L R
Sampling rate : 48.0 kHz
Frame rate : 31.250 FPS (1536 SPF)
Bit depth : 16 bits
Compression mode : Lossy
Stream size : 107 MiB (14%)
Title : Stereo
Language : English
Service kind : Complete Main
Default : Yes
Alternate group : 1



**************************************************************




Sharing Widget


No Comments For This Torrent . Be The First to Comment

You must Login to Comment . Click Here to Login

Menu 1

Some content in menu 1.

Die In One Day 2018 HDRip XviD AC3 LLG (Size: 773.4 MB)
  Die In One Day 2018 HDRip XviD AC3 LLG 773.4 MB
tracker name
udp://tracker.leechers-paradise.org:6969/announce
udp://zer0day.ch:1337/announce
udp://open.demonii.com:1337/announce
udp://tracker.coppersurfer.tk:6969/announce
udp://exodus.desync.com:6969/announce
µTorrent compatible trackers list

Relative Torrents

Torrent Name Size Age SEED LEECH
Talking Dead S08E07 Talking Dead on Straivarius HDTV x264-CRiMSON
Posted by    Trige   in   TV
323.4 MB 6 minutes 296 870
Talking Dead S08E07 Talking Dead on Straivarius 720p HDTV x264-CRiMSON
Posted by    Trige   in   TV
1.2 GB 6 minutes 352 920
Talking Dead S08E07 Talking Dead on Straivarius 480p x264-mSD [eztv]
Posted by    EZTVag   in   TV
132.2 MB 6 minutes 828 268
Salvage Dawgs S08E06 Pinehurst Steam Plat WEB x264-KOMPOST
Posted by    Trige   in   TV
259.9 MB 16 minutes 712 930
Salvage Dawgs S08E06 Pinehurst Steam Plat 720p WEB x264-KOMPOST
Posted by    Trige   in   TV
459.8 MB 16 minutes 116 282