Mission Impossible Fallout 2018 HDRip Xv Torrent Free Download

Seeders : 83   &   Leechers : 203      06-11-2018 (1 week)
Mission Impossible Fallout 2018 HDRip Xv Torrent Download
Added: ago by LifeLongg ***** in Movies   1.2 GB   Hits : 21
Info Hash: D22FA15798DC64DF09EBBC7646AEC4BC8A8F2A64 Download
Mission Impossible Fallout 2018 HDRip Xv Torrent Download

Anonymous and Direct Download movies , software , shows...

Fast Safe Anonymous
movies, software, shows...
Mission: Impossible - Fallout
Action /Adventure /Thriller  .   147 min   8.0/10
Starring : Tom Cruise  Henry Cavill  Ving Rhames  Simon Pegg  
Director : Christopher McQuarrie  
Tags: Mission  Impossible  Fallout  2018  HDRip  XviD  

Released:
27 Jul 2018
Ethan Hunt and his IMF team, along with some familiar allies, race against time after a mission gone wrong.

Torrent Description





******************************Thumbnail:**********************



******************************Screenshots:********************

Screenshot 1

Screenshot 2

Screenshot 3

Screenshot 4


*****************************Poster:***********************




************************************************************

Mission.Impossible.Fallout.2018.HDRip.XviD.AC3.ENG.LLG.mp4
Format : MPEG-4
Format profile : Base Media
Codec ID : isom (isom/iso2/avc1/mp41)
File size : 1.19 GiB
Duration : 2 h 27 min
Overall bit rate mode : Variable
Overall bit rate : 1 154 kb/s
Writing application : Lavf57.83.100

Video
ID : 1
Format : AVC
Format/Info : Advanced Video Codec
Format profile : [email protected]
Format settings : CABAC / 1 Ref Frames
Format settings, CABAC : Yes
Format settings, RefFrames : 1 frame
Codec ID : avc1
Codec ID/Info : Advanced Video Coding
Duration : 2 h 27 min
Bit rate mode : Variable
Bit rate : 767 kb/s
Maximum bit rate : 2 304 kb/s
Width : 720 pixels
Height : 384 pixels
Display aspect ratio : 1.85:1
Frame rate mode : Constant
Frame rate : 23.976 (23976/1000) FPS
Color space : YUV
Chroma subsampling : 4:2:0
Bit depth : 8 bits
Scan type : Progressive
Bits/(Pixel*Frame) : 0.116
Stream size : 810 MiB (66%)
Codec configuration box : avcC

Audio
ID : 2
Format : AC-3
Format/Info : Audio Coding 3
Commercial name : Dolby Digital
Codec ID : ac-3
Duration : 2 h 27 min
Bit rate mode : Constant
Bit rate : 384 kb/s
Channel(s) : 6 channels
Channel layout : L R C LFE Ls Rs
Sampling rate : 48.0 kHz
Frame rate : 31.250 FPS (1536 SPF)
Bit depth : 16 bits
Compression mode : Lossy
Stream size : 406 MiB (33%)
Service kind : Complete Main
Default : Yes
Alternate group : 1



**************************************************************




Sharing Widget


No Comments For This Torrent . Be The First to Comment

You must Login to Comment . Click Here to Login

Menu 1

Some content in menu 1.

Mission Impossible Fallout 2018 HDRip XviD AC3 ENG LLG (Size: 1.2 GB)
  Mission Impossible Fallout 2018 HDRip XviD AC3 ENG LLG 1.2 GB
tracker name
udp://tracker.leechers-paradise.org:6969/announce
udp://zer0day.ch:1337/announce
udp://open.demonii.com:1337/announce
udp://tracker.coppersurfer.tk:6969/announce
udp://exodus.desync.com:6969/announce
µTorrent compatible trackers list

Relative Torrents

Torrent Name Size Age SEED LEECH
Savita Damodar Paranjpe (2018) 720p Marahi WEB-HD AVC AAC 1 3GB ESub -[MovCr]
Posted by    rock3   in   Movies
1.3 GB 24 minutes 324 754
Emmerdale 2018 11 19 WEB x264-KOMPOST [etv]
Posted by    EZTVag   in   TV
244.6 MB 28 minutes 74 947
[Golumpa] RErideD - Derrida who leaps though time - 05 (RErideD - Tokigoe no De
Posted by    Sour456Gol   in   Anime
1.4 GB 33 minutes 936 718
The Happytime Murders 2018 720p BluRay HVC x265-RMTeam
Posted by    bone111   in   Movies
552.9 MB 42 minutes 66 971
Coronation Street 19th Nov 2018 part 2 180p (Deep61) [WWRG]
Posted by    Deep61   in   TV
493.2 MB 43 minutes 149 672