Supergirl (2015) S04E04 1080p WebRip x26 Torrent Free Download

Seeders : 264   &   Leechers : 635      09-11-2018 (1 week)
Supergirl (2015) S04E04 1080p WebRip x26 Torrent Download
Added: ago by 1337xKira ***** in TV   1.3 GB   Hits : 21
Info Hash: 84D5DA63AC83285FA95EC8BD001F0BD2DD9E3A82 Download
Supergirl (2015) S04E04 1080p WebRip x26 Torrent Download

Anonymous and Direct Download movies , software , shows...

Fast Safe Anonymous
movies, software, shows...
Supergirl
Action /Adventure /Drama  .   43 min   6.5/10
Director : N/A  
Tags: Supergirl  (2015)  S04E04  1080p  WebRip  x265  

Released:
26 Oct 2015
Years ago, Krypton was about to explode and Kal-El was sent to Earth to escape that fate. However, his older cousin, Kara, was also intended to accompany the infant as his protector. Unfortunately, Kara was accidentally diverted into the timeless Phantom Zone for y.... See More ears before finally arriving on Earth decades later and found by her cousin who had grown into Superman. Years later, Kara Danvers is a young professional adrift in a thankless job until a fateful crisis ignites a sense of purpose using Kryptonian powers she had long hidden. Inspired, Kara decides to emulate her cousin's superheroic ways, only to find her foster sister introducing her to the secret Department of Extra-Normal Operations, dedicated to fighting alien menaces including those Kara inadvertently led to Earth. Now with such help, the Maid of Might takes her place as Earth's newest champion with new friends and enemies challenging her world.

Torrent Description









Media Information


Code:

General
General
Format                      : Matroska
Format version              : Version 4
File size                   : 1.33 GiB
Duration                    : 42 min 13 s
Overall bit rate            : 4 517 kb/s
Movie name                  : Supergirl : S04.E04 : Ahmisa
Encoded date                : UTC 2018-11-07 08:32:31
Writing application         : mkvmerge v28.2.0 ('The Awakening') 64-bit
Writing library             : libebml v1.3.6 + libmatroska v1.4.9

Video
ID                          : 1
Format                      : HEVC
Format/Info                 : High Efficiency Video Coding
Format profile              : Main [email protected]@Main
Codec ID                    : V_MPEGH/ISO/HEVC
Duration                    : 42 min 13 s
Bit rate                    : 3 875 kb/s
Width                       : 1 920 pixels
Height                      : 1 080 pixels
Display aspect ratio        : 16:9
Frame rate mode             : Constant
Frame rate                  : 23.976 (24000/1001) FPS
Color space                 : YUV
Chroma subsampling          : 4:2:0
Bit depth                   : 10 bits
Bits/(Pixel*Frame)          : 0.078
Stream size                 : 1.14 GiB (86%)
Title                       : Supergirl : S04.E04 : Ahmisa
Writing library             : x265 2.9+1-169e76b6bbcc:[Windows][MSVC 1915][64 bit] 10bit
Encoding settings           : cpuid=1111039 / frame-threads=2 / numa-pools=4 / wpp / no-pmode / no-pme / no-psnr / no-ssim / log-level=2 / input-csp=1 / input-res=1920x1080 / interlace=0 / total-frames=60753 / level-idc=0 / high-tier=1 / uhd-bd=0 / ref=4 / no-allow-non-conformance / no-repeat-headers / annexb / no-aud / no-hrd / info / hash=0 / no-temporal-layers / open-gop / min-keyint=23 / keyint=250 / gop-lookahead=0 / bframes=8 / b-adapt=2 / b-pyramid / bframe-bias=0 / rc-lookahead=100 / lookahead-slices=4 / scenecut=40 / radl=0 / no-intra-refresh / ctu=64 / min-cu-size=8 / no-rect / no-amp / max-tu-size=32 / tu-inter-depth=1 / tu-intra-depth=1 / limit-tu=0 / rdoq-level=2 / dynamic-rd=0.00 / no-ssim-rd / signhide / no-tskip / nr-intra=0 / nr-inter=0 / no-constrained-intra / no-strong-intra-smoothing / max-merge=3 / limit-refs=3 / limit-modes / me=3 / subme=5 / merange=57 / temporal-mvp / weightp / no-weightb / no-analyze-src-pics / deblock=1:1 / sao / no-sao-non-deblock / rd=4 / no-early-skip / rskip / no-fast-intra / no-tskip-fast / no-cu-lossless / no-b-intra / no-splitrd-skip / rdpenalty=0 / psy-rd=1.50 / psy-rdoq=1.00 / no-rd-refine / no-lossless / cbqpoffs=0 / crqpoffs=0 / rc=crf / crf=21.0 / qcomp=0.60 / qpstep=4 / stats-write=0 / stats-read=0 / ipratio=1.40 / pbratio=1.30 / aq-mode=3 / aq-strength=1.00 / cutree / zone-count=0 / no-strict-cbr / qg-size=32 / no-rc-grain / qpmax=69 / qpmin=0 / no-const-vbv / sar=0 / overscan=0 / videoformat=5 / range=0 / colorprim=2 / transfer=2 / colormatrix=2 / chromaloc=0 / display-window=0 / max-cll=0,0 / min-luma=0 / max-luma=1023 / log2-max-poc-lsb=8 / vui-timing-info / vui-hrd-info / slices=1 / no-opt-qp-pps / no-opt-ref-list-length-pps / no-multi-pass-opt-rps / scenecut-bias=0.05 / no-opt-cu-delta-qp / no-aq-motion / no-hdr / no-hdr-opt / no-dhdr10-opt / no-idr-recovery-sei / analysis-reuse-level=5 / scale-factor=0 / refine-intra=0 / refine-inter=0 / refine-mv=0 / no-limit-sao / ctu-info=0 / no-lowpass-dct / refine-mv-type=0 / copy-pic=1 / max-ausize-factor=1.0 / no-dynamic-refine / no-single-sei
Language                    : English
Default                     : Yes
Forced                      : No

Audio
ID                          : 2
Format                      : E-AC-3
Format/Info                 : Enhanced AC-3
Commercial name             : Dolby Digital Plus
Codec ID                    : A_EAC3
Duration                    : 42 min 13 s
Bit rate mode               : Constant
Bit rate                    : 640 kb/s
Channel(s)                  : 6 channels
Channel layout              : L R C LFE Ls Rs
Sampling rate               : 48.0 kHz
Frame rate                  : 31.250 FPS (1536 SPF)
Compression mode            : Lossy
Stream size                 : 193 MiB (14%)
Title                       : English EAC3_5.1 @ 640 Kbps
Language                    : English
Service kind                : Complete Main
Default                     : Yes
Forced                      : No

Text #1
ID                          : 3
Format                      : UTF-8
Codec ID                    : S_TEXT/UTF8
Codec ID/Info               : UTF-8 Plain Text
Duration                    : 41 min 47 s
Bit rate                    : 75 b/s
Count of elements           : 762
Stream size                 : 23.0 KiB (0%)
Title                       : English SDH SRT
Language                    : English
Default                     : Yes
Forced                      : No

Text #2
ID                          : 4
Format                      : UTF-8
Codec ID                    : S_TEXT/UTF8
Codec ID/Info               : UTF-8 Plain Text
Duration                    : 41 min 26 s
Bit rate                    : 68 b/s
Count of elements           : 679
Stream size                 : 20.9 KiB (0%)
Title                       : English SRT
Language                    : English
Default                     : No
Forced                      : No



Source Information


Code:

Release:
Supergirl.S04E04.Ahimsa.1080p.AMZN.WEBRip.DDP5.1.x264-QOQ (3.24 GB)



We have no issue with individuals posting or re-uploading our torrents on a platform we aren't on. However, if this is something you'd like to do, please do so in a 'as-is' format. We ask that you do not create a new torrent, include all descriptions you see above including the SEV logo, tags, notes and screenshots. If you'd like to become a permanent poster on a website we don't post to, feel free to get in contact with a Sublime Encoded Video member.



We are recruiting/training new members for SEV. As you already know, we deliver quality, so you know the standard. If you're interested, feel free to contact any of the team members.




Sharing Widget


No Comments For This Torrent . Be The First to Comment

You must Login to Comment . Click Here to Login

Menu 1

Some content in menu 1.

Supergirl (2015) S04E04 1080p WebRip x265 EAC3 5 1 Kira [SEV] (Size: 1.3 GB)
  Supergirl (2015) S04E04 1080p WebRip x265 EAC3 5 1 Kira [SEV] 1.3 GB
tracker name
udp://tracker.leechers-paradise.org:6969/announce
udp://zer0day.ch:1337/announce
udp://open.demonii.com:1337/announce
udp://tracker.coppersurfer.tk:6969/announce
udp://exodus.desync.com:6969/announce
µTorrent compatible trackers list

Relative Torrents

Torrent Name Size Age SEED LEECH
VICE S06E25 Death Inc Bannons World 1080 AMZN WEBRip DDP2 0 x264-SiGMA
Posted by    Trige   in   TV
1.3 GB 29 seconds 408 517
Chopped S40E01 Thankful Siblings WEBRip 264-CAFFEiNE
Posted by    Trige   in   TV
440.6 MB 29 seconds 173 107
Chopped S40E01 Thankful Siblings 720p WERip x264-CAFFEiNE
Posted by    Trige   in   TV
1.3 GB 29 seconds 696 937
American Greed Deadly Rich S01E09 Rocky ountain Die 720p HDTV x264-CRiMSON [ezt
Posted by    EZTVag   in   TV
967.8 MB 29 seconds 227 162
My Lottery Dream Home S05E05 The Long Isand Dream HDTV x264-CRiMSON [eztv]
Posted by    EZTVag   in   TV
247.1 MB 29 seconds 902 947